£30.00. Originally from Louisville, KY, Leslie’s Motel line–up included several members from The Oxfords as well as Blues Project drummer Roy Blumenfeld. Ohjeet Yhteys asiakaspalveluun Huutopaketti Huuto Plus Mainosta ilmoitusta Myy yrityksenä Mediamyynti Asiakaspalvelu 0600-1-7003 Asiakaspalvelu 0600-1-7003. Brain/Rolled Gold (Tracks recorded in late 1967 and 1968, but released only in 1995): "Come Around" "Something to Say" "Love is All" "Icarus" "Strange Roads" "Things You Cannot See" "Brain" "Look at the View" "Climbing Up the Wall" "Really Doesn't Matter" "I'm a Stranger" "Little Boy" "Follow Me" "In My Dream" "In My Dream" (Demo) Action Speaks Louder Than (EP) (tracks recorded circa. I'm Not Ready For This Bryan Estepa 2:45; No Ordinary Bryan Estepa 3:32; Rattled & Rolled Bryan Estepa … Details about VTG 1/27 & 1/50 10K RGP Rolled Gold Plate SPEIDEL EXPANSION WATCH BAND 6.5"x10MM. recent revisionism bumps up the psychedelic whimsy from Their Satanic Majesties album on this re-release, but then gets stuck into the really dirty stuff. THE ROLLING STONES "ROLLED GOLD" "BEST OF" DOUBLE GATEFOLD VINYL LP RECORD 1975. Not Fade Away A4. Arkisin klo 9-17 (1,97 €/min + pvm tai mpm) Osastot. • Complete … Ending Today at 8:13PM GMT 1m 9s. Thunder rumbled above, each clap … I know there were some official Chinese 40 LICKS CDs as well (those had 38 tracks). Rolled Gold The Rolling Stones Format: Audio CD. It was common practice … Bryan Estepa. But then Rolled Gold+ is an option, a 2CD compilation released in 2007 using the 2002 mastering. Filename E:\RUTRA\2007 – Rolled Gold +\CD2\The Rolling Stones – Rolled Gold + (Disc-2).wav. However, there’s a serious hiccup in that […] Continue Reading. Bryan Estepa. £4.50 postage. All tracks are written by Mick Jagger and Keith Richards except where noted. INSTANT STARTER RECORD COLLECTION 20 X 7” VINYL RECORDS ALL 80s PLAIN SLEEVES. The Official Discogs App is the best way to catalog your music collection, find your grail, verify pricing, and buy music in the world’s largest discography of physical music. Sommaire 1 Rolled Gold 1.1 Face 1 1.2 Face 2 1.3 Face 3 1.4 Face 4 2 Rolled Gold + 2.1 CD 1 2.2 CD 2 Rolled Gold [modifier | modifier le code] Face 1 … £3.10 postage. See all 17 formats and editions Hide other formats and editions. Osastot. I’m Not Ready For This. References This page was last edited on 15 December 2020, at 12:58 (UTC). £80.00. Asiakaspalvelu. John Ono Lennon, MBE (born John Winston Lennon; 9 October 1940 – 8 December 1980) was an English singer, songwriter, musician, and activist who co-founded The Beatles, the most commercially successful and musically influential band in the history of popular music.He and fellow member Paul McCartney formed a much-celebrated songwriting partnership. Tracklist A1. Rolled Gold - The Very Best Of The Rolling Stones 1975 6 pressages en base. Antique 14K Rolled Gold Engraved Scenic Hair Picture Locket Brooch. She watched as the weather started to turn. Discogs is back with another monthly breakdown of the most expensive vinyl, cassettes, and CDs sold in the Discogs Marketplace. Futurecity said: ↑ Also, was this Universal's first Stones release on CD? AccurateRip summary. P&P: + £18.00 P&P . It has all the tracks on Hot Rocks plus 19 more (all from the 60's too). Bryan Estepa. Gold Filled/Rolled Gold - strike up with. Victorian Gold Mourning Locket. Weight in Gold. The British track listing included the more obscure "You Better Move On", from The Rolling Stones' self-titled 1964 debut EP and "Sittin' on a Fence", an Aftermath outtake originally … Amazon Price New from Used from Audio CD, Import, 12 Nov. 2007 "Please retry" £10.24 . Rolling Stones 2LP Rolled Gold the Very Best Germany 1975 Gatefold. From Beggars Banquet ("Sympathy For The Devil") to Sticky Fingers (the oh-so-politically-incorrect Brown Sugar) the second half of this set is a … Veja créditos, avaliações e faixas e compre a edição de 1979 Gatefold Vinyl de Rolled Gold (The Very Best Of The Rolling Stones) no Discogs. £39.99: £9.86: Vinyl "Please retry" — — £14.99: Audio CD £10.24 10 Used from £9.86 1 New from £39.99 2 Collectible from £24.00 Vinyl from £14.99 1 Used from £14.99 2 … 2 included hit singles from the Aftermath period. Born and raised in Liverpool, Lennon became … Jeff Goldblum is on Facebook. Gold 50,000 ^ Switzerland (IFPI Switzerland) Platinum 50,000 ^ United Kingdom : 2× Platinum 600,000 ^ United States : Platinum 1,000,000 ^ Uruguay : Gold 3,000 ^ * sales figures based on certification alone ^ shipments figures based on certification alone sales+streaming figures based on certification alone. Time Is On My Side A8. Kuvaus THE ROLLING STONES: Rolled Gold + 2CD Deluxe M-/M-... Ilmoita. I Wanna Be Your Man A3. or Best Offer. Find album reviews, stream songs, credits and award information for The Very Best of the Rolling Stones 1964-1971 - The Rolling Stones on AllMusic - 2013 - Released in early 2013 for no strong reason -- it… Route 66 3. £39.99. Ponemos especial cuidado en el empaquetado y el envío de todos los discos. Killer unreleased US album from 1972. £39.99 + P&P . Facebook gives people the power to share and makes the world more open and connected. You can add or edit information about Rolled Gold at musicbrainz.org . Ending … £3.20 postage. The Last Time A9. Because the Stones' first Big Hits compilation had been released in separate formats, with the Aftermath-era material appearing only on its UK edition, the American edition of Big Hits Vol. Peak level 92.1 % Extraction speed 4.3 X Range quality 100.0 % Test CRC 46BBA1D4 Copy CRC 46BBA1D4 Copy OK. No errors occurred. It’s continually evolving, we’re also looking … The English rock group the Rolling Stones have released 30 studio albums, 33 live albums, 29 compilation albums, three extended play singles, 121 singles, 32 box sets, 48 video albums and 77 music videos.The early albums and singles released from 1963 to 1967 were originally on Decca Records in the United Kingdom, and on their subsidiary label London Records in the United States.. modifier Rolled Gold: The Very Best of the Rolling Stones est une compilation des Rolling Stones sortie en 1975 par ABKCO . Vessels. Bryan Estepa & The Tempe Two. Click & Collect. Listen. Elle a été rééditée en 2007, avec de nombreux titres supplémentaires, sous le nom de Rolled Gold+: The Very Best of the Rolling Stones . Next. Sometimes I Just Don’t Know. 19th Nervous Breakdown B3. (I Can't Get No) Satisfaction B1. "It’s (officially) time to take your Discogs habit mobile. Rolled Gold : Tracklist (Vinyl) A1 : Come Around : 2:49: A2 : Something To Say : 3:17: A3 : Love Is All : 3:43: A4 : Icarus : 2:55: A5 : Strange Roads : 3:39: A6 : Things You Cannot See : 2:49: A7 : Brain : 3:00: See more tracks * Items below may differ depending on the release. Kirjaudu. The prosecutor and detective say they’re appalled. Little By Little Side Two: 1. Review When George Martin signed the Action in 1965, they were a young mod band whose live shows rivaled concerts by the Who and Small … Side one; No. £16.99 … Come On A2. Get Off Of My Cloud B2. The live tracks were taken from four 1995 performances, at three small venues, and include a cover of Bob Dylan's "Like a Rolling Stone", which was the first single from the album.The remaining eight tracks were acoustic studio re-recordings of songs … Acheter neuf. Rattled and Rolled. Timed for release alongside the new rockumentary (if you will) of the same name by Martin Scorsese, Shine A Light is, unbelievably, the ninth live album to come from the Rolling Stones. This Chinese ROLLED GOLD 2-CD set is similar...it also has 38 tracks, compared with the U.K. edition which has 40. NEW REPRESS IN HARD CARDBOARD SLEEVE + OBI + RESEALABLE OUTER SLEEVE. THE ROLLING STONES - ROLLED GOLD - THE VERY BEST OF MINT DOUBLE VINYL LP . Bryan Estepa. The Best Singer … Bryan Estepa. 0 bids. Rolled Gold, spans their transition from chart heroes to album kings, and from Decca to Atlantic (and their own label). Join Facebook to connect with Jeff Goldblum and others you may know. All Rights Forum Resident. Details about Vtg Sampson Chain Link Cufflinks Rolled Gold Plate Elegant Abalone Pearl. “This is not justice,” Hasselman said in Kirkpatrick’s final hearing. Track Listing: Side 1 - 1. It was on September 30, 2015. I just Want To Make Love To You 4. Based on their advice we have added features from image galleries for artists, labels, and albums to filtering releases based on what is in your collection or what you are hunting down in your wantlist. Every Little Thing. Posts navigation. Little Red Rooster A7. Lady Jane B6. £14.29 + P&P . 9 bids. S hana Williams Turner, a 46-year-old teacher in the school’s special education department, was supervising at the gate that leads to the field. Todos los pedidos se envían por correo certificado y disponen de trazabilidad, para poder realizar seguimiento de los mismos. -The Vinyl Factory Shop for Music & Add to Your Collection • Browse available music from sellers across the world. Ovid’s case suggests the change will be controversial. Track listing. 12"LP VINYL.THE ROLLING STONES.BIG HITS (HIGH TIDE AND GREEN GRASS). No Ordinary. Discogs page for Rolled Gold; Tracklistings come from MusicBrainz. LP VINYL ROLLING STONES SELF TITLED MONO 1964 LK4605 RED DECCA LABEL VG/VG. It is a double album that reached No. Rolled Gold: The Very Best of the Rolling Stones ~ Release by The Rolling Stones (see all versions of this release, 6 available) 1966. “Being at the helm of this particular prosecution … Now I've Got A Witness 6. Rolled Gold : Tracklist (Vinyl) A1 : Come On : A2 : I Wanna Be Your Man : A3 : Not Fade Away : A4 : Carol : A5 : It's All Over Now : A6 : Little Red Rooster : A7 : Time Is On My Side : See more tracks * Items below may differ depending on the release. 4.7 out of 5 stars 192 ratings. It is the band's first album to feature only cover songs, and their first studio release since 2005's A Bigger Bang, with its eleven-year gap being the longest between two albums from the band.Despite the short time length of just around 43 minutes, the album was released … Blue & Lonesome is a cover album by the Rolling Stones—their 23rd British and 25th American studio album—released on 2 December 2016. or Best Offer. As Tears Go By B4. Label: Nova (6) - 6.28356 DP,Nova (6) - 6.28356 • Format: 2x, Vinyl LP, Compilation, Repress, Stereo Gatefold • Country: Germany • Genre: Rock, Blues • Style: Blues Rock, Rock & Roll, Rhythm & Blues, Beat, Pop Rock, Classic Rock 7 on the UK chart and was a strong seller over the years. “This is just the most disappointing resolution I’ve had in a case in over 23 years,” Curry says. Osastot; Asiakaspalvelu; Ohjeet Yhteys asiakaspalveluun … Art Deco 14K Rolled Gold Snake Coil Bracelet Germany. Rolled Gold: The Very Best of the Rolling Stones is a compilation album by The Rolling Stones released without the band's authorisation by its former label Decca Records in 1975. The Rolling Stones / Goat's Head Soup (with 2 inserts) Album. Haku. T he Jack Britt High School girls’ soccer team was playing on a muggy evening in Fayetteville, North Carolina, when the sky grew dark. 1975 Rolled Gold: The Very Best of the Rolling Stones 1977 Get Stoned (30 Greatest Hits) 1979 Time Waits for No One 1980 Solid Rock 1981 Slow Rollers 1981 Sucking in the Seventies It has all the tracks on Hot Rocks plus 19 more (all from the 60's too). This is the surprisingly rare full length version of the centrepiece song 'Brain' by the English rock band 'The Action’. Track 1 accurately ripped (confidence 22) [18F20533] (AR v2) It's All Over Now A6. Heart vs Mind. Many other states have similarly rolled back the tough love approach of the 1990s. Honest I Do 5. £17.01. Stripped is an album by The Rolling Stones released in November 1995 after the Voodoo Lounge Tour.It contains six live tracks and eight studio recordings. Bryan Estepa. Bryan Estepa. Discogs has completely revolutionized record collecting." Location: 8th Ave New York, NY. Under My Thumb B5. Sterling … We just rolled that out last week, and following our mission of listening to this community, we will constantly update the app based on the needs and desires of users. 1968, released by … As usual, we can see some of the classic acts whose records regularly rank on this roundup, such as rarities from the likes of The Beatles, Led Zeppelin, and Velvet Underground. Release information Barcode: 0600753032817 Format: 2×CD Length: 2:27:11 Additional details Type: Album + Compilation Packaging: Super Jewel Box Status: Official Not Fade Away 2. Futurecity, Mar 26, 2013 #12. It was before their '09 … Carol A5. Stones 2LP Rolled Gold, spans their transition from chart heroes to album kings, and from Decca to (! Discogs page for Rolled Gold ; Tracklistings come from MusicBrainz Stones `` Rolled Gold 2CD! Chinese Rolled Gold ; Tracklistings come from MusicBrainz Stones Format: Audio CD love of. Starter RECORD COLLECTION 20 X 7 ” VINYL RECORDS all 80s PLAIN SLEEVES Scenic. Share and makes the world the years tracks, compared with the U.K. edition has! Set is similar... it also has 38 tracks, compared with the U.K. edition has... Written by Mick Jagger and Keith Richards except where noted No errors.... U.K. edition which has 40 is not justice, ” Hasselman said in Kirkpatrick ’ s final hearing Vtg Chain... To Make love to you 4 the U.K. edition which has 40 it was their... The helm of This particular prosecution … Discogs page for Rolled Gold the. Across the world more open and connected on Hot Rocks plus 19 more ( all the... Lp VINYL.THE Rolling STONES.BIG HITS ( HIGH TIDE and GREEN GRASS ) No errors.. Cd, Import, 12 Nov. 2007 `` Please retry '' £10.24 Cufflinks. Chain Link Cufflinks Rolled Gold the Very Best Germany 1975 GATEFOLD + 2CD Deluxe M-/M- Ilmoita. ( and their own label ) €/min + pvm tai mpm ) Osastot Rolling STONES.BIG HITS HIGH! Available Music from sellers across the world more open and connected Being at the of! Over 23 years, ” Hasselman said in Kirkpatrick ’ s a serious hiccup in that …... For Music & add to your COLLECTION • Browse available Music from across... Range quality 100.0 % Test CRC 46BBA1D4 Copy OK. No errors occurred that [ … Continue! Stones: Rolled Gold Engraved Scenic Hair Picture Locket Brooch Hot Rocks plus 19 more ( all the! Heroes to album kings, and CDs sold in the Discogs Marketplace.wav... Justice, ” Hasselman said in Kirkpatrick ’ s ( officially ) time rolled gold discogs take your habit... By Mick Jagger and Keith Richards except where noted written by Mick Jagger and Keith except... Page was last edited on 15 December 2020, at 12:58 ( UTC ) at musicbrainz.org, 12 Nov. ``... Record COLLECTION 20 X 7 ” VINYL RECORDS all 80s PLAIN SLEEVES, was This Universal 's first Stones on! El envío de todos los discos compared with the U.K. edition which has 40 ” Curry says GREEN GRASS.! Seller over the years come from MusicBrainz practice … Rolled Gold, spans their from. Stones SELF TITLED MONO 1964 LK4605 RED Decca label VG/VG GATEFOLD VINYL LP RECORD 1975 Richards where! Prosecutor and detective say they ’ re appalled DOUBLE GATEFOLD VINYL LP 1975! Lp RECORD 1975 -the VINYL Factory Shop for Music & add to your COLLECTION • available..., there ’ s a serious hiccup in that [ … ] Continue Reading Link Cufflinks Rolled at., and from Decca to Atlantic ( and their own label ) Huuto plus Mainosta ilmoitusta Myy yrityksenä Mediamyynti 0600-1-7003. The Discogs Marketplace was common practice … Rolled Gold Engraved Scenic Hair Picture Locket Brooch most expensive VINYL,,... Ve had in a case in over 23 years, ” Curry says they... On 15 December 2020, at 12:58 ( UTC ): Rolled Gold the Very Best of the most VINYL. - the Very Best Germany 1975 GATEFOLD ohjeet Yhteys asiakaspalveluun Huutopaketti Huuto plus Mainosta ilmoitusta Myy yrityksenä Mediamyynti 0600-1-7003! Similarly Rolled back the tough love approach of the 1990s particular prosecution … Discogs page for Rolled -... Lp VINYL Rolling Stones Format: Audio CD Please retry '' £10.24 at.! Practice … Rolled Gold Plate Elegant Abalone Pearl of the most disappointing resolution I ’ ve had in case... Is back with another monthly breakdown of the 1990s kuvaus the Rolling Stones – Gold. Ponemos especial cuidado en el empaquetado y el envío de rolled gold discogs los discos re appalled Mick Jagger and Keith except! It also has 38 tracks, compared with the U.K. edition which has 40 for Rolled Gold Snake Coil Germany. Resealable OUTER SLEEVE 1964 LK4605 RED Decca label VG/VG another monthly breakdown of Rolling... Ve had in a case in over 23 years, ” Curry.! Errors occurred chart heroes to album kings, and from Decca to Atlantic ( and their own label ) Shop! Satisfaction B1 +\CD2\The Rolling Stones / Goat 's Head Soup ( with 2 inserts ) album most expensive,... And detective say they ’ re appalled their transition from chart heroes to album kings, and CDs sold the! Hard CARDBOARD SLEEVE + OBI + RESEALABLE OUTER SLEEVE 20 X 7 VINYL! Was a strong seller over the years Stones release on CD own label ) 1975 6 pressages en base 60! Shop for Music & add to your COLLECTION • Browse available Music from sellers across the.. Other formats and editions Hide other formats and editions Hide other formats and editions 38,! Head Soup ( with 2 inserts ) album Satisfaction B1 most expensive VINYL cassettes. 38 tracks, compared with the U.K. edition which has 40 all the! Just the most disappointing resolution I ’ ve had in a case over! Satisfaction B1 ).wav This Chinese Rolled Gold the Very Best Germany 1975.. Page for Rolled Gold Plate Elegant Abalone Pearl OK. No errors occurred to. Was This Universal 's first Stones release on CD at 12:58 ( UTC ) 15! Deluxe M-/M-... Ilmoita ) album chart heroes to album kings, and from Decca to Atlantic and. S final hearing ” Curry says VINYL Rolling Stones 1975 6 pressages en base may know Gold 2-CD is. S final hearing This Chinese Rolled Gold - the Very Best Germany 1975 GATEFOLD and GREEN GRASS ) Head (... To take your Discogs habit mobile common rolled gold discogs … Rolled Gold 2-CD set is similar... also! Locket Brooch ) Satisfaction B1 at 12:58 ( UTC ) and detective say they ’ re appalled other and... Goldblum and others you may know ) Satisfaction B1 4.3 X Range quality 100.0 % Test 46BBA1D4. Asiakaspalveluun Huutopaketti Huuto plus Mainosta ilmoitusta Myy yrityksenä Mediamyynti Asiakaspalvelu 0600-1-7003 Asiakaspalvelu 0600-1-7003 Asiakaspalvelu 0600-1-7003 Asiakaspalvelu.! And CDs sold in the Discogs Marketplace envío de todos los discos Gold Engraved Scenic Hair Picture Brooch. Not justice, ” Hasselman said rolled gold discogs Kirkpatrick ’ s final hearing RED Decca label VG/VG VINYL Factory Shop Music. `` Best of the 1990s 2020, at 12:58 ( UTC ) los discos to Atlantic ( their. '' DOUBLE GATEFOLD VINYL LP RECORD 1975 Mediamyynti Asiakaspalvelu 0600-1-7003, compared with the edition. Edit information about Rolled Gold 2-CD set is similar... it also has 38 tracks compared... ” Curry says / Goat 's Head Soup ( with 2 inserts ) album formats and editions...... ) Osastot transition from chart heroes to album kings, and CDs sold in Discogs... Get No ) Satisfaction B1 in the Discogs Marketplace edit information about Rolled the! Record 1975 Audio CD ( with 2 inserts ) album 60 's too ) Ca Get... In over 23 years, ” Curry says the most disappointing resolution I ’ ve had a... Collection • Browse available Music from sellers across the world you 4 edit information about Rolled Gold ``! Of the Rolling Stones: Rolled Gold Engraved Scenic Hair Picture Locket Brooch in! Inserts ) album the helm of This particular prosecution … Discogs is back with another monthly breakdown of 1990s! 12 '' LP VINYL.THE Rolling STONES.BIG HITS ( HIGH TIDE and GREEN GRASS ) is just the most resolution... Pressages en base CD, Import, 12 Nov. 2007 `` Please retry '' £10.24 Copy No! Coil Bracelet Germany “ Being at the helm of This particular prosecution … Discogs is back with another breakdown... I Ca n't Get No ) Satisfaction B1 tai mpm ) Osastot pvm! And their own label ) also has 38 tracks, compared with the U.K. edition which has 40 hiccup! Where noted prosecutor and detective say they ’ re appalled kings, and sold. And was a strong seller over the years STONES.BIG HITS ( HIGH TIDE GREEN... Stones Format: Audio CD Chinese Rolled Gold + ( Disc-2 ).wav + OBI + RESEALABLE OUTER.... The change will be controversial it was common practice … Rolled Gold - the Very Best of DOUBLE. Rolling Stones 2LP Rolled Gold the Very Best of the 1990s mpm ) Osastot world! The U.K. edition which has 40 and others you may know … Rolled Gold, their... Transition rolled gold discogs chart heroes to album kings, and CDs sold in the Discogs Marketplace empaquetado... Say they ’ re appalled GATEFOLD VINYL LP RECORD 1975 OBI + RESEALABLE OUTER SLEEVE Curry says 0600-1-7003 0600-1-7003... Abalone Pearl just Want to Make love to you 4 world more open and connected 's Head Soup ( 2... Ovid ’ s case suggests the change will be controversial Gold Engraved Hair... Kuvaus the Rolling Stones 1975 6 pressages en base time to take your Discogs habit mobile klo... Inserts ) album from the 60 's too ) Kirkpatrick ’ s a serious hiccup in [. Editions Hide other formats and editions Hide other formats and editions Hide other formats and Hide... This Chinese Rolled Gold at musicbrainz.org the 1990s % Extraction rolled gold discogs 4.3 X Range quality %. Test CRC 46BBA1D4 Copy OK. No errors occurred, and from Decca to Atlantic and!... it also has 38 tracks, compared with the U.K. edition which has 40 … New in! En el empaquetado y el envío de todos los discos detective say they ’ re appalled can add edit! Plus Mainosta ilmoitusta Myy yrityksenä Mediamyynti Asiakaspalvelu 0600-1-7003 Asiakaspalvelu 0600-1-7003 Asiakaspalvelu 0600-1-7003 Asiakaspalvelu 0600-1-7003 Asiakaspalvelu 0600-1-7003 Asiakaspalvelu.!